Watch movie
Aamir Khan

The Grand Tour 2016 S02E10 Oh Canada 1080p AMZN WEBRip DDP5 1 x264 QOQ[rarbg] torrent download

seeders: 643
leechers: 339
updated:
Added ago by SeekNDstroy ***** in TV
Torrent Downloaded 10 times.
Info Hash: 41B9328C2229474B5C63BA99D8F4670BD1AC23B3

loading...

Torrent Files

The Grand Tour 2016 S02E10 Oh Canada 1080p AMZN WEBRip DDP5 1 x264-QOQ[rarbg] (Size: 6.0 GB)
  The Grand Tour 2016 S02E10 Oh Canada 1080p AMZN WEBRip DDP5 1 x264-QOQ[rarbg] 6.0 GB

Torrent Description



The.Grand.Tour.2016.S02E10.Oh.Canada.1080p.AMZN.WEBRip.DDP5.1.x264-QOQ

"Oh, Canada"
Tesla Model X, Range Rover Velar, Porsche Macan Turbo, Alfa Romeo Stelvio Quadrifoglio

Video
ID                                       : 1
Format                                   : AVC
Format/Info                              : Advanced Video Codec
Format profile                           : [email protected]
Format settings                          : CABAC / 4 Ref Frames
Format settings, CABAC                   : Yes
Format settings, RefFrames               : 4 frames
Codec ID                                 : V_MPEG4/ISO/AVC
Duration                                 : 1 h 7 min
Bit rate mode                            : Variable
Bit rate                                 : 12.1 Mb/s
Maximum bit rate                         : 15.0 Mb/s
Width                                    : 1 920 pixels
Height                                   : 1 080 pixels
Display aspect ratio                     : 16:9
Frame rate mode                          : Constant
Frame rate                               : 25.000 FPS
Color space                              : YUV
Chroma subsampling                       : 4:2:0
Bit depth                                : 8 bits
Scan type                                : Progressive
Bits/(Pixel*Frame)                       : 0.233
Stream size                              : 5.65 GiB (95%)
Default                                  : Yes
Forced                                   : No
Color range                              : Limited
Color primaries                          : BT.709
Transfer characteristics                 : BT.709
Matrix coefficients                      : BT.709

Audio
ID                                       : 2
Format                                   : E-AC-3
Format/Info                              : Enhanced Audio Coding 3
Format settings, Endianness              : Big
Codec ID                                 : A_EAC3
Duration                                 : 1 h 7 min
Bit rate mode                            : Constant
Bit rate                                 : 640 kb/s
Channel(s)                               : 6 channels
Channel positions                        : Front: L C R, Side: L R, LFE
Sampling rate                            : 48.0 kHz
Frame rate                               : 187.500 FPS (256 SPF)
Compression mode                         : Lossy
Stream size                              : 307 MiB (5%)
Language                                 : English
Service kind                             : Complete Main
Default                                  : Yes
Forced                                   : No

Text #1
ID                                       : 3
Format                                   : UTF-8
Codec ID                                 : S_TEXT/UTF8
Codec ID/Info                            : UTF-8 Plain Text
Duration                                 : 1 h 5 min
Bit rate                                 : 96 b/s
Count of elements                        : 1282
Stream size                              : 46.2 KiB (0%)
Language                                 : English
Default                                  : No
Forced                                   : No

Text #2
ID                                       : 4
Format                                   : UTF-8
Codec ID                                 : S_TEXT/UTF8
Codec ID/Info                            : UTF-8 Plain Text
Duration                                 : 1 h 6 min
Bit rate                                 : 97 b/s
Count of elements                        : 1325
Stream size                              : 47.5 KiB (0%)
Title                                    : SDH
Language                                 : English
Default                                  : No
Forced                                   : No



Related Torrents

torrent name size age seed leech
1.5 GB 2 minutes 72 153
1.5 GB 2 minutes 569 249
668.51 MB 4 minutes 272 184
1.52 GB 4 minutes 155 237
974.64 MB 4 minutes 697 402

Sharing Widget


Download torrent
6.0 GB
seeders:1214
leechers:386
The Grand Tour 2016 S02E10 Oh Canada 1080p AMZN WEBRip DDP5 1 x264-QOQ[rarbg]



To share this torrent use the code below and insert it into comments, status messages, forum posts or your signature.

Torrent: The Grand Tour 2016 S02E10 Oh Canada 1080p AMZN WEBRip DDP5 1 x264-QOQ[rarbg]

Comments

Latest Searches