Descargar | Federal Republic of Yugoslavia | Call.of.Duty.Black.Ops.II.MULTi5-PLAZA

The Grand Tour (2016) S02E10 (1080p AMZN WEB DL x265 HEVC 10bit EAC3 6 0 RZeroX) [QxR] torrent download

seeders: 305
leechers: 56
updated:
Added ago by QxR ***** in TV
Torrent Downloaded 10 times.
Info Hash: 8DC59EE60CC3FA215EF8D32843B49831A6F77CF7

loading...

Torrent Files

The Grand Tour (2016) - S02E10 (1080p AMZN WEB-DL x265 HEVC 10bit EAC3 6 0 RZeroX) [QxR] (Size: 3.6 GB)
  The Grand Tour (2016) - S02E10 (1080p AMZN WEB-DL x265 HEVC 10bit EAC3 6 0 RZeroX) [QxR] 3.6 GB

Torrent Description







Media Information

Code:

General
Format : Matroska
Format version : Version 4 / Version 2
File size : 3.62 GiB
Duration : 1 h 7 min
Overall bit rate : 7 722 kb/s
Encoded date : UTC 2018-02-09 08:25:05
Writing application : mkvmerge v20.0.0 ('I Am The Sun') 64-bit
Writing library : libebml v1.3.5 + libmatroska v1.4.8

Video
ID : 1
Format : HEVC
Format/Info : High Efficiency Video Coding
Format profile : Main [email protected]@Main
Codec ID : V_MPEGH/ISO/HEVC
Duration : 1 h 7 min
Bit rate : 7 080 kb/s
Width : 1 920 pixels
Height : 1 080 pixels
Display aspect ratio : 16:9
Frame rate mode : Constant
Frame rate : 25.000 FPS
Color space : YUV
Chroma subsampling : 4:2:0
Bit depth : 10 bits
Bits/(Pixel*Frame) : 0.137
Stream size : 3.32 GiB (92%)
Writing library : x265 2.6+33-193c2b20b0d8:[Windows][GCC 8.0.1][64 bit] 10bit
Encoding settings : cpuid=1173503 / frame-threads=3 / numa-pools=12 / wpp / no-pmode / no-pme / no-psnr / no-ssim / log-level=2 / input-csp=1 / input-res=1920x1080 / interlace=0 / total-frames=100732 / level-idc=0 / high-tier=1 / uhd-bd=0 / ref=4 / no-allow-non-conformance / no-repeat-headers / annexb / no-aud / no-hrd / info / hash=0 / no-temporal-layers / open-gop / min-keyint=25 / keyint=250 / gop-lookahead=0 / bframes=8 / b-adapt=2 / b-pyramid / bframe-bias=0 / rc-lookahead=75 / lookahead-slices=4 / scenecut=40 / radl=0 / no-intra-refresh / ctu=64 / min-cu-size=8 / no-rect / no-amp / max-tu-size=32 / tu-inter-depth=1 / tu-intra-depth=1 / limit-tu=0 / rdoq-level=2 / dynamic-rd=0.00 / no-ssim-rd / signhide / no-tskip / nr-intra=0 / nr-inter=0 / no-constrained-intra / strong-intra-smoothing / max-merge=3 / limit-refs=3 / limit-modes / me=3 / subme=5 / merange=57 / temporal-mvp / weightp / weightb / no-analyze-src-pics / deblock=-1:-1 / sao / no-sao-non-deblock / rd=4 / no-early-skip / rskip / no-fast-intra / no-tskip-fast / no-cu-lossless / no-b-intra / no-splitrd-skip / rdpenalty=0 / psy-rd=1.70 / psy-rdoq=1.00 / no-rd-refine / no-lossless / cbqpoffs=0 / crqpoffs=0 / rc=crf / crf=22.0 / qcomp=0.60 / qpstep=4 / stats-write=0 / stats-read=0 / ipratio=1.40 / pbratio=1.30 / aq-mode=3 / aq-strength=1.00 / cutree / zone-count=0 / no-strict-cbr / qg-size=32 / no-rc-grain / qpmax=69 / qpmin=0 / no-const-vbv / sar=0 / overscan=0 / videoformat=5 / range=0 / colorprim=2 / transfer=2 / colormatrix=2 / chromaloc=0 / display-window=0 / max-cll=0,0 / min-luma=0 / max-luma=1023 / log2-max-poc-lsb=8 / vui-timing-info / vui-hrd-info / slices=1 / no-opt-qp-pps / no-opt-ref-list-length-pps / no-multi-pass-opt-rps / scenecut-bias=0.00 / no-opt-cu-delta-qp / aq-motion / no-hdr / no-hdr-opt / no-dhdr10-opt / analysis-reuse-level=5 / scale-factor=0 / refine-intra=0 / refine-inter=0 / refine-mv=0 / no-limit-sao / ctu-info=0 / no-lowpass-dct / refine-mv-type=0 / copy-pic=1
Default : Yes
Forced : No

Audio
ID : 2
Format : E-AC-3
Format/Info : Enhanced Audio Coding 3
Format settings, Endianness : Big
Codec ID : A_EAC3
Duration : 1 h 7 min
Bit rate mode : Constant
Bit rate : 640 kb/s
Channel(s) : 6 channels
Channel positions : Front: L C R, Side: L R, LFE
Sampling rate : 48.0 kHz
Frame rate : 187.500 FPS (256 spf)
Compression mode : Lossy
Stream size : 307 MiB (8%)
Language : English
Default : No
Forced : No

Subtitle #1
ID : 3
Format : UTF-8
Codec ID : S_TEXT/UTF8
Codec ID/Info : UTF-8 Plain Text
Duration : 1 h 5 min
Bit rate : 96 b/s
Count of elements : 1282
Stream size : 46.3 KiB (0%)
Language : English
Default : No
Forced : No

Subtitle #2
ID : 4
Format : UTF-8
Codec ID : S_TEXT/UTF8
Codec ID/Info : UTF-8 Plain Text
Duration : 1 h 6 min
Bit rate : 97 b/s
Count of elements : 1325
Stream size : 47.5 KiB (0%)
Title : SDH
Language : English
Default : No
Forced : No

Menu
00:00:00.000 : en:Studio Logo
00:00:05.000 : en:Opening Credits
00:00:55.000 : en:In this incredible show
00:02:15.000 : en:Testing the Sport in Sports Utility Vehicle
00:11:51.000 : en:Utilitarianism
00:14:16.000 : en:The Vehicle Test
00:19:25.000 : en:Time to step in a dog turd of chat on Conversation Street
00:24:05.000 : en:Jeremy reviews the Tesla Model X
00:35:51.000 : en:Moving on to Celebrity Face-Off
00:49:17.000 : en:One final SUV test
01:05:50.000 : en:On that terrible disappointment
01:06:29.000 : en:End Credits

Source Information

Code:

Release:
The.Grand.Tour.2016.S02E10.Oh.Canada.1080p.AMZN.WEB-DL.DD+5.1.H.264-QOQ.mkv (5.96 GBs)


Note From QxR:

Quote:

Whilst we are happy for our releases to be re-posted on a platform we aren't on, please do so in an 'as-is' format. We ask that you do not create a new torrent, include all descriptions you see above including the QxR logo, tags, notes and screenshots. If you'd like to become a permanent poster on a website we don't post to, feel free to get in contact with a QxR member.




Related Torrents

torrent name size age seed leech
521.6 MB 2 minutes 204 78
472.33 MB 2 minutes 299 461
129.56 MB 2 minutes 247 388
328.68 MB 2 minutes 141 58
1.99 GB 2 minutes 10 481

Sharing Widget


Download torrent
3.6 GB
seeders:1214
leechers:386
The Grand Tour (2016) - S02E10 (1080p AMZN WEB-DL x265 HEVC 10bit EAC3 6 0 RZeroX) [QxR]



To share this torrent use the code below and insert it into comments, status messages, forum posts or your signature.

Torrent: The Grand Tour (2016) - S02E10 (1080p AMZN WEB-DL x265 HEVC 10bit EAC3 6 0 RZeroX) [QxR]

Comments

Latest Searches